<?xml version="1.0" standalone="no"?> <!DOCTYPE svg PUBLIC "-//W3C//DTD SVG 1.0//EN" "http://www.w3.org/TR/2001/REC-SVG-20010904/DTD/svg10.dtd" > <svg xmlns="http://www.w3.org/2000/svg" width="100%" height="100%">
<defs >
<font id="gillsansbold" horiz-adv-x="467" ><font-face
    font-family="GillSansC"
    units-per-em="1000"
    panose-1="2 0 8 3 0 0 0 0 0 0"
    ascent="899"
    descent="-230"
    alphabetic="0" />
<missing-glyph horiz-adv-x="500" />
<glyph unicode=" " glyph-name="space" horiz-adv-x="278" />
<glyph unicode="!" glyph-name="exclam" horiz-adv-x="271" d="M136 206Q120 206 114 213T101 248Q52 453 52 583Q52 635 74 663T136 691T197 663T219 583Q219 527 200 404T169 242Q162 218 157 212T136 206ZM100 165T136 165T197 140T223 78T198 17T136 -9T75
16T49 78T74 139Z" />
<glyph unicode="&quot;" glyph-name="quotedbl" horiz-adv-x="479" d="M402 461H315L291 595V716H426V595L402 461ZM53 716H188V595L164 461H77L53 595V716Z" />
<glyph unicode="#" glyph-name="numbersign" horiz-adv-x="584" d="M-6 450H139L177 631H290L252 450H406L444 631H555L517 450H591V341H495L468 210H591V101H444L406 -80H295L332 101H179L142 -80H28L66 101H-6V210H89L116 341H-6V450ZM229 341L202 210H355L382
341H229Z" />
<glyph unicode="$" glyph-name="dollar" horiz-adv-x="542" d="M467 604V481Q395 534 311 547V385Q403 357 452 302T502 182Q502 108 452 58T311 -9V-119H227V-9Q191 -5 138 16T52 60V178Q143 109 227 94V286Q132 308 89 358T45 477Q45 547 95 596T227 655V691H311V655Q383
652 467 604ZM227 415V547Q196 540 178 523T160 483Q160 436 227 415ZM311 260V96Q346 103 367 124T388 175Q388 233 311 260Z" />
<glyph unicode="%" glyph-name="percent" horiz-adv-x="719" d="M256 530Q256 561 235 583T185 605Q155 605 135 584T114 530Q114 500 135 478T185 455Q215 455 235 476T256 530ZM346 530Q346 464 299 417T185 369T71 416T24 530Q24 597 71 644T185 691T299 644T346
530ZM638 691L161 -8H78L558 691H638ZM694 152Q694 86 647 39T533 -9T419 38T372 152Q372 219 419 266T533 313T647 266T694 152ZM604 152Q604 183 583 205T533 227Q503 227 483 206T462 152Q462 122 483 100T533 77Q563 77 583 98T604 152Z" />
<glyph unicode="&amp;" glyph-name="ampersand" horiz-adv-x="750" d="M580 354H726Q668 220 589 150L726 0H519L469 54Q369 -9 255 -9Q162 -9 101 42T39 171Q39 285 192 364Q159 410 145 443T130 515Q130 591 189 641T339 691Q426 691 481 646T536 529Q536 429
409 354L502 247Q546 291 580 354ZM335 435Q403 475 403 521Q403 546 386 562T340 578T295 564T277 526Q277 486 335 435ZM390 142L269 276Q199 231 199 184Q199 151 224 128T285 104Q335 104 390 142Z" />
<glyph unicode="&apos;" glyph-name="quotesingle" horiz-adv-x="240" d="M164 461H77L53 595V716H188V595L164 461Z" />
<glyph unicode="(" glyph-name="parenleft" horiz-adv-x="385" d="M201 231Q201 104 241 -8T379 -230H276Q171 -147 108 -23T45 231Q45 360 108 485T276 691H379Q282 584 242 472T201 231Z" />
<glyph unicode=")" glyph-name="parenright" horiz-adv-x="385" d="M184 231Q184 359 144 471T6 691H109Q213 610 276 485T340 231T277 -21T109 -230H6Q103 -120 143 -8T184 231Z" />
<glyph unicode="*" glyph-name="asterisk" horiz-adv-x="469" d="M297 301Q308 264 271 264H210Q190 264 183 272T182 301L226 443L214 454L115 352Q95 332 86 330T65 346L37 399Q18 435 52 443L204 476V478L52 512Q19 520 35 552L65 609Q72 622 76 625T90 624T115
603L214 501L226 512L182 654Q170 691 210 691H268Q290 691 296 683T297 654L253 512L265 501L364 603Q386 625 394 626T414 606L439 561Q461 521 427 512L275 478V476L427 443Q463 435 441 397L415 350Q407 336 402 332T390 330T372 344L265 454L253 443L297 301Z"
/>
<glyph unicode="+" glyph-name="plus" horiz-adv-x="584" d="M42 289V417H228V603H356V417H542V289H356V103H228V289H42Z" />
<glyph unicode="," glyph-name="comma" horiz-adv-x="271" d="M50 -169V-138Q72 -118 85 -81T95 -9Q44 11 44 64Q44 98 67 120T126 143Q170 143 198 111T226 29Q226 -46 175 -104T50 -169Z" />
<glyph unicode="-" glyph-name="hyphen" horiz-adv-x="333" d="M297 298V165H36V298H297Z" />
<glyph unicode="." glyph-name="period" horiz-adv-x="271" d="M99 165T135 165T196 140T222 78T197 17T135 -9T74 16T48 78T73 139Z" />
<glyph unicode="/" glyph-name="slash" horiz-adv-x="281" d="M0 -9L169 691H272L101 -9H0Z" />
<glyph unicode="0" glyph-name="zero" horiz-adv-x="552" d="M507 344Q507 185 451 88T279 -9T104 86T44 341Q44 510 107 600T277 691Q388 691 447 596T507 344ZM355 355Q355 462 338 512T276 563Q250 563 234 547T209 498T199 428T196 334Q196 225 214 172T277
119Q324 119 339 177T355 355Z" />
<glyph unicode="1" glyph-name="one" horiz-adv-x="552" d="M378 0H211V456Q152 418 105 403V530Q124 538 136 545T170 569T215 617T262 691H378V0Z" />
<glyph unicode="2" glyph-name="two" horiz-adv-x="552" d="M505 139V0H54V19Q144 129 244 282Q318 394 318 470Q318 510 292 539T227 568Q151 568 63 483V626Q165 691 254 691Q355 691 412 640T470 497Q470 374 285 139H505Z" />
<glyph unicode="3" glyph-name="three" horiz-adv-x="552" d="M203 294V414Q247 414 272 438T297 495Q297 529 270 551T200 574Q144 574 75 541V661Q142 691 231 691Q328 691 388 645T449 524Q449 421 348 366Q468 320 468 191Q468 100 402 46T225 -9Q133 -9 58
30V162Q136 108 202 108Q249 108 279 133T309 198Q309 239 280 266T203 294Z" />
<glyph unicode="4" glyph-name="four" horiz-adv-x="552" d="M458 691V277H504V168H458V0H307V168H41V277L362 691H458ZM305 463L161 277H307V463H305Z" />
<glyph unicode="5" glyph-name="five" horiz-adv-x="552" d="M453 682V545H235V418Q346 426 411 364T476 208Q476 109 409 50T229 -9Q186 -9 138 1T64 28V152Q143 108 209 108Q256 108 286 135T317 203Q317 262 258 287T99 293V682H453Z" />
<glyph unicode="6" glyph-name="six" horiz-adv-x="552" d="M423 691L265 433Q350 456 423 398T496 224Q496 123 432 57T270 -9Q169 -9 107 58T44 233Q44 350 137 500L255 691H423ZM350 174T350 220T329 294T272 322T217 294T196 218Q196 171 216 145T273 119Q308
119 329 146Z" />
<glyph unicode="7" glyph-name="seven" horiz-adv-x="552" d="M133 43L316 546H64V682H515V674L269 -9L133 43Z" />
<glyph unicode="8" glyph-name="eight" horiz-adv-x="552" d="M486 505Q486 410 403 360Q505 308 505 195Q505 103 443 47T275 -9Q174 -9 111 47T48 194Q48 312 151 360Q106 389 87 423T67 506Q67 589 124 640T274 691Q376 691 431 635T486 505ZM340 500Q340 591
276 591Q247 591 230 566T213 498Q213 454 230 428T278 402Q307 402 323 428T340 500ZM353 196Q353 246 333 275T277 305T221 277T200 200Q200 151 221 121T278 91Q312 91 332 119T353 196Z" />
<glyph unicode="9" glyph-name="nine" horiz-adv-x="552" d="M125 -9L282 247Q192 222 121 287T50 455Q50 556 115 623T277 691T438 624T502 453Q502 332 412 186L292 -9H125ZM350 459Q350 507 330 535T274 563Q240 563 218 534T196 460Q196 414 217 386T274 357Q307
357 328 386T350 459Z" />
<glyph unicode=":" glyph-name="colon" horiz-adv-x="271" d="M99 461T135 461T196 436T222 374T197 313T135 287T74 312T48 374T73 435ZM99 165T135 165T196 140T222 78T197 17T135 -9T74 16T48 78T73 139Z" />
<glyph unicode=";" glyph-name="semicolon" horiz-adv-x="271" d="M50 -169V-138Q72 -118 85 -81T95 -9Q44 11 44 64Q44 98 67 120T126 143Q170 143 198 111T226 29Q226 -46 175 -104T50 -169ZM99 461T135 461T196 436T222 374T197 313T135 287T74 312T48 374T73 435Z" />
<glyph unicode="&lt;" glyph-name="less" horiz-adv-x="584" d="M47 295V415L538 628V491L195 355L538 219V82L47 295Z" />
<glyph unicode="=" glyph-name="equal" horiz-adv-x="584" d="M42 180V308H542V180H42ZM42 398V526H542V398H42Z" />
<glyph unicode="&gt;" glyph-name="greater" horiz-adv-x="584" d="M537 295L46 82V219L389 355L46 491V628L537 415V295Z" />
<glyph unicode="?" glyph-name="question" horiz-adv-x="375" d="M25 548L50 671Q109 691 166 691Q243 691 287 653T331 551Q331 509 316 472T280 407T237 353T201 297T186 233V221Q186 210 180 208T155 205Q137 205 129 213Q122 220 112 254T101 317Q101 359
120 399T159 474T179 532T164 569T120 583Q95 583 78 576T34 548H25ZM122 165T158 165T219 140T245 78T220 17T158 -9T97 16T71 78T96 139Z" />
<glyph unicode="@" glyph-name="at" horiz-adv-x="979" d="M868 9H972Q919 -97 809 -153T543 -210Q471 -210 401 -196T263 -148T144 -65T62 61T30 230Q30 297 46 364T100 497T194 614T337 696T531 728Q716 728 831 625T946 355Q946 266 907 186T792 53T623 0Q548
0 534 56Q478 0 402 0Q319 0 267 57T214 205Q214 259 231 314T280 418T363 498T476 529Q566 529 607 463L619 517H748L670 147Q661 100 686 100Q733 100 795 178T858 357Q858 407 841 454T787 544T682 613T523 640Q437 640 367 615T251 548T175 452T131 342T118
231Q118 143 151 74T243 -37T374 -100T531 -122Q764 -122 868 9ZM340 203Q340 151 364 120T428 89T499 116T547 184T572 262T580 327Q580 379 555 410T489 441Q420 441 380 366T340 203Z" />
<glyph unicode="A" glyph-name="A" horiz-adv-x="781" d="M475 682L778 0H595L539 135H234L183 0H3L278 682H475ZM489 254L379 519L279 254H489Z" />
<glyph unicode="B" glyph-name="B" horiz-adv-x="698" d="M76 682H371Q482 682 539 630T597 511Q597 469 572 433T504 375Q575 357 612 310T649 200Q649 167 639 136T604 72T529 20T408 0H76V682ZM246 557V411H335Q378 411 400 433T422 485Q422 514 400 535T335
557H246ZM246 286V125H342Q412 125 440 144T469 209Q469 246 440 266T365 286H246Z" />
<glyph unicode="C" glyph-name="C" horiz-adv-x="771" d="M712 208V59Q640 22 580 7T444 -9Q348 -9 271 20T146 99T73 210T47 339Q47 483 158 587T457 691Q604 691 704 631V479Q579 549 469 549Q360 549 291 491T222 342Q222 250 290 192T465 133Q526 133 575
149T712 208Z" />
<glyph unicode="D" glyph-name="D" horiz-adv-x="802" d="M75 682H376Q555 682 654 585T753 340Q753 186 653 93T357 0H75V682ZM245 557V125H356Q417 125 462 144T531 196T567 265T578 341Q578 436 523 496T354 557H245Z" />
<glyph unicode="E" glyph-name="E" horiz-adv-x="635" d="M581 125V0H78V682H574V557H248V414H559V289H248V125H581Z" />
<glyph unicode="F" glyph-name="F" horiz-adv-x="604" d="M546 682V557H246V405H546V280H246V0H76V682H546Z" />
<glyph unicode="G" glyph-name="G" horiz-adv-x="813" d="M727 635V486Q596 549 472 549Q406 549 356 530T277 479T236 411T222 334Q222 243 287 188T458 133Q511 133 571 157V237H472V362H741V83Q703 44 620 18T454 -9Q276 -9 162 89T47 340Q47 496 161 593T458
691Q612 691 727 635Z" />
<glyph unicode="H" glyph-name="H" horiz-adv-x="833" d="M757 682V0H587V276H247V0H77V682H247V408H587V682H757Z" />
<glyph unicode="I" glyph-name="I" horiz-adv-x="333" d="M252 682V0H82V682H252Z" />
<glyph unicode="J" glyph-name="J" horiz-adv-x="333" d="M259 682V63Q259 -73 192 -140Q123 -209 -32 -197V-63Q29 -73 59 -40T89 60V682H259Z" />
<glyph unicode="K" glyph-name="K" horiz-adv-x="719" d="M649 682L427 362L728 0H515L245 320V0H75V682H245V373H247L462 682H649Z" />
<glyph unicode="L" glyph-name="L" horiz-adv-x="615" d="M596 125V0H76V682H246V125H596Z" />
<glyph unicode="M" glyph-name="M" horiz-adv-x="885" d="M443 429L662 682H810V0H640V426L456 212H430L246 426V0H76V682H224L443 429Z" />
<glyph unicode="N" glyph-name="N" horiz-adv-x="844" d="M767 682V0H624L247 437V0H77V682H233L597 265V682H767Z" />
<glyph unicode="O" glyph-name="O" horiz-adv-x="875" d="M828 341Q828 202 721 97T438 -9Q348 -9 272 21T148 101T74 213T47 341Q47 404 72 465T145 577T269 659T438 691Q530 691 606 660T730 577T802 465T828 341ZM653 247T653 341T594 492T438 549T282 492T222
341T281 190T438 133T594 190Z" />
<glyph unicode="P" glyph-name="P" horiz-adv-x="656" d="M83 682H387Q443 682 487 664T558 616T599 551T613 480Q613 399 555 337T388 274H253V0H83V682ZM253 557V399H332Q389 399 413 418T438 478Q438 522 410 539T313 557H253Z" />
<glyph unicode="Q" glyph-name="Q" horiz-adv-x="875" d="M827 -30L838 -44L705 -157Q521 -144 327 0Q221 19 134 113T47 337Q47 403 74 466T151 579T276 660T440 691Q532 691 608 659T731 576T803 465T829 343Q829 230 759 138T575 11Q632 -22 702 -34T827 -30ZM222
339Q222 245 281 188T438 130Q532 130 593 185T654 339Q654 438 592 493T438 549Q341 549 282 492T222 339Z" />
<glyph unicode="R" glyph-name="R" horiz-adv-x="677" d="M76 682H381Q482 682 543 624T604 486Q604 373 487 319Q508 309 523 294T556 248T586 191T625 105T674 0H487Q470 34 449 83T414 161T382 220T343 263T295 277H246V0H76V682ZM246 557V402H336Q376 402
402 421T429 480Q429 557 332 557H246Z" />
<glyph unicode="S" glyph-name="S" horiz-adv-x="604" d="M534 638V505Q397 566 318 566Q272 566 245 551T218 510Q218 489 237 473T286 445T354 419T429 388T496 347T546 285T565 198Q565 102 493 47T303 -9Q247 -9 199 1T127 23T57 57V204Q131 155 182 136T290
116Q390 116 390 179Q390 201 371 218T322 248T254 273T179 303T112 344T62 406T43 495Q43 584 114 637T303 691Q411 691 534 638Z" />
<glyph unicode="T" glyph-name="T" horiz-adv-x="719" d="M692 682V557H445V0H275V557H28V682H692Z" />
<glyph unicode="U" glyph-name="U" horiz-adv-x="823" d="M582 682H752V295Q752 136 658 64T411 -9Q255 -9 163 66T70 294V682H240V290Q240 218 287 176T409 133Q483 133 532 174T582 302V682Z" />
<glyph unicode="V" glyph-name="V" horiz-adv-x="719" d="M719 682L404 -9H330L0 682H185L365 293L536 682H719Z" />
<glyph unicode="W" glyph-name="W" horiz-adv-x="1167" d="M583 436L372 -9H299L-1 682H179L340 305L515 682H652L827 305L987 682H1167L868 -9H795L583 436Z" />
<glyph unicode="X" glyph-name="X" horiz-adv-x="813" d="M779 682L512 353L808 0H588L403 225L221 0H4L293 353L20 682H240L403 481L563 682H779Z" />
<glyph unicode="Y" glyph-name="Y" horiz-adv-x="708" d="M269 0V319L0 682H206L354 468L503 682H708L439 319V0H269Z" />
<glyph unicode="Z" glyph-name="Z" horiz-adv-x="698" d="M666 682L294 125H666V0H4L379 557H30V682H666Z" />
<glyph unicode="[" glyph-name="bracketleft" horiz-adv-x="438" d="M419 682V573H229V-112H419V-221H84V682H419Z" />
<glyph unicode="\" glyph-name="backslash" horiz-adv-x="281" d="M279 -9H178L7 691H110L279 -9Z" />
<glyph unicode="]" glyph-name="bracketright" horiz-adv-x="438" d="M19 -221V-112H209V573H19V682H354V-221H19Z" />
<glyph unicode="^" glyph-name="asciicircum" horiz-adv-x="584" d="M56 292L240 682H348L527 292H388L292 531L196 292H56Z" />
<glyph unicode="_" glyph-name="underscore" horiz-adv-x="500" d="M-6 -75H506V-125H-6V-75Z" />
<glyph unicode="`" glyph-name="grave" horiz-adv-x="333" d="M8 676H173L247 530H173L8 676Z" />
<glyph unicode="a" glyph-name="a" horiz-adv-x="531" d="M531 114V33Q461 -9 395 -9Q359 -9 341 3T314 43Q237 -9 162 -9Q108 -9 71 25T33 104Q33 127 39 145T51 177T78 205T112 227T161 248T218 268T291 291Q302 294 307 296Q309 331 291 352T227 373Q184 373
138 352T57 296V414Q148 470 257 470Q452 470 452 330V120Q452 88 476 88Q494 88 531 114ZM307 112V223Q236 197 208 178T180 126Q180 106 194 92T227 77Q269 77 307 112Z" />
<glyph unicode="b" glyph-name="b" horiz-adv-x="583" d="M203 682V435Q263 470 322 470Q422 470 484 404T547 232T487 59T332 -9Q264 -9 203 35V0H58V682H203ZM203 341V127Q248 88 289 88Q340 88 370 126T400 234T368 338T287 373Q248 373 203 341Z" />
<glyph unicode="c" glyph-name="c" horiz-adv-x="500" d="M463 126V22Q377 -9 307 -9Q186 -9 113 56T40 229Q40 335 113 402T301 470Q376 470 456 440V332Q397 363 338 363Q273 363 234 327T195 230T233 132T333 94Q378 94 463 126Z" />
<glyph unicode="d" glyph-name="d" horiz-adv-x="583" d="M524 682V0H379V37Q322 -9 251 -9Q158 -9 97 59T35 231Q35 337 97 403T259 470Q319 470 379 441V682H524ZM379 126V346Q341 373 298 373Q243 373 213 335T182 228Q182 165 212 127T293 88Q337 88 379 126Z" />
<glyph unicode="e" glyph-name="e" horiz-adv-x="552" d="M510 143V52Q427 -9 304 -9Q183 -9 110 56T37 229Q37 335 105 402T280 470Q385 470 454 399T518 207H187Q191 145 231 111T339 77Q383 77 421 91T510 143ZM190 283H390Q386 330 359 357T290 384Q247 384
221 358T190 283Z" />
<glyph unicode="f" glyph-name="f" horiz-adv-x="302" d="M226 461H292V362H226V0H81V362H15V461H81V484Q81 583 136 637T283 691Q305 691 371 682V565Q325 571 306 571Q226 571 226 490V461Z" />
<glyph unicode="g" glyph-name="g" horiz-adv-x="542" d="M530 461V364H464Q487 324 487 287Q487 228 445 186Q410 151 355 141T265 125T229 98Q229 80 258 73T326 65T410 52T481 14Q518 -23 518 -75Q518 -153 454 -191T274 -230Q142 -230 85 -191T28 -96Q28 -12
151 19V21Q95 37 95 81Q95 130 179 149V151Q129 159 90 196T50 293Q50 312 55 332T74 376T111 418T171 449T256 461H530ZM185 291Q185 257 210 233T269 208T327 234T352 296Q352 328 329 351T269 375Q233 375 209 351T185 291ZM385 -86Q385 -35 272 -35Q221 -35
192 -49T162 -90Q162 -144 281 -144Q328 -144 356 -127T385 -86Z" />
<glyph unicode="h" glyph-name="h" horiz-adv-x="583" d="M207 682V393H209Q270 470 355 470Q425 470 474 426T524 294V0H379V263Q379 313 359 338T304 364Q256 364 207 294V0H62V682H207Z" />
<glyph unicode="i" glyph-name="i" horiz-adv-x="271" d="M208 461V0H63V461H208ZM102 691T135 691T191 668T215 611T192 555T135 531T79 554T55 611T78 667Z" />
<glyph unicode="j" glyph-name="j" horiz-adv-x="271" d="M211 461V-13Q211 -119 158 -171T37 -230L-9 -99Q31 -92 48 -64T66 22V461H211ZM105 691T138 691T194 668T218 611T195 555T138 531T82 554T58 611T81 667Z" />
<glyph unicode="k" glyph-name="k" horiz-adv-x="552" d="M208 682V233H210L389 461H559L379 233L567 0H389L210 227H208V0H63V682H208Z" />
<glyph unicode="l" glyph-name="l" horiz-adv-x="271" d="M208 682V0H63V682H208Z" />
<glyph unicode="m" glyph-name="m" horiz-adv-x="958" d="M208 461V402Q244 435 285 454Q324 470 368 470Q486 470 534 372Q579 424 621 447T716 470Q795 470 845 422T896 296V0H751V270Q751 319 729 346T666 373Q602 373 552 295V0H407V273Q407 325 382 349T319
373Q261 373 208 309V0H63V461H208Z" />
<glyph unicode="n" glyph-name="n" horiz-adv-x="583" d="M205 461V395Q270 470 355 470Q421 470 472 428T523 293V0H378V281Q378 328 359 350T306 373Q279 373 256 356T205 297V0H60V461H205Z" />
<glyph unicode="o" glyph-name="o" horiz-adv-x="594" d="M557 230Q557 177 540 135T495 67T433 23T365 -2T298 -9Q184 -9 111 57T37 231Q37 343 113 406T298 470Q343 470 386 457T469 417T533 342T557 230ZM402 234Q402 384 298 384Q249 384 221 346T192 231Q192
148 221 113T298 77Q349 77 375 117T402 234Z" />
<glyph unicode="p" glyph-name="p" horiz-adv-x="583" d="M202 461V421Q261 470 334 470Q424 470 486 403T548 236Q548 125 486 58T321 -9Q256 -9 202 23V-230H57V461H202ZM202 330V118Q243 88 286 88Q339 88 370 125T401 228Q401 294 373 330T292 367Q250 367 202 330Z" />
<glyph unicode="q" glyph-name="q" horiz-adv-x="583" d="M380 461H525V-230H380V23Q327 -9 261 -9Q159 -9 97 58T35 236Q35 336 96 403T249 470Q322 470 380 421V461ZM380 118V330Q334 367 290 367Q238 367 210 331T182 228Q182 163 212 126T296 88Q339 88 380 118Z" />
<glyph unicode="r" glyph-name="r" horiz-adv-x="448" d="M209 461V329H211Q274 470 358 470Q397 470 454 428L414 300Q360 334 328 334Q290 334 263 301T209 199V0H64V461H209Z" />
<glyph unicode="s" glyph-name="s" horiz-adv-x="427" d="M377 436V333Q295 384 223 384Q171 384 171 348Q171 332 207 316T285 284T364 231T400 141Q400 69 351 30T212 -9Q163 -9 115 2T47 25V127Q139 88 196 88Q228 88 247 97T266 122Q266 140 243 154T186 180T118
209T61 255T37 328Q37 392 89 431T228 470Q309 470 377 436Z" />
<glyph unicode="t" glyph-name="t" horiz-adv-x="406" d="M391 461V362H223V172Q223 138 242 118T294 98Q338 98 391 125V20Q321 -9 257 -9Q178 -9 128 32T78 164V362H12V390L205 606H223V461H391Z" />
<glyph unicode="u" glyph-name="u" horiz-adv-x="583" d="M378 0V66Q313 -9 229 -9Q156 -9 108 36T60 166V461H205V176Q205 130 225 109T278 88Q311 88 338 110T377 167V461H523V0H378Z" />
<glyph unicode="v" glyph-name="v" horiz-adv-x="510" d="M215 -9L2 461H157L255 207L354 461H508L296 -9H215Z" />
<glyph unicode="w" glyph-name="w" horiz-adv-x="781" d="M391 242L275 -9H207L-1 461H147L244 207L347 461H435L537 207L634 461H782L575 -9H506L391 242Z" />
<glyph unicode="x" glyph-name="x" horiz-adv-x="552" d="M535 461L353 236L549 0H381L272 143L167 0H4L192 236L4 461H173L272 328L366 461H535Z" />
<glyph unicode="y" glyph-name="y" horiz-adv-x="510" d="M509 461L200 -221H46L181 75L1 461H156L253 224L357 461H509Z" />
<glyph unicode="z" glyph-name="z" horiz-adv-x="521" d="M42 461H492L256 99H492V0H19L256 362H42V461Z" />
<glyph unicode="{" glyph-name="braceleft" horiz-adv-x="385" d="M29 314Q90 315 113 351T136 463V542Q136 640 181 682T319 724H363V607H357Q291 607 277 590T262 496Q262 397 248 347T177 257Q233 218 247 168T262 18Q262 -59 276 -76T357 -93H363V-210H319Q227
-210 182 -168T136 -28V51Q136 126 113 162T29 200V314Z" />
<glyph unicode="|" glyph-name="bar" horiz-adv-x="281" d="M86 -221V682H195V-221H86Z" />
<glyph unicode="}" glyph-name="braceright" horiz-adv-x="385" d="M356 200Q295 199 272 163T249 51V-28Q249 -126 204 -168T66 -210H22V-93H28Q94 -93 108 -76T123 18Q123 117 137 167T208 257Q152 296 138 346T123 496Q123 573 109 590T28 607H22V724H66Q158
724 203 682T249 542V463Q249 388 272 352T356 314V200Z" />
<glyph unicode="~" glyph-name="asciitilde" horiz-adv-x="584" d="M16 175V306Q104 378 176 378Q220 378 302 339T421 300Q481 300 567 374V244Q538 215 493 194T409 172Q366 172 282 211T168 251Q134 251 101 235T16 175Z" />
</font>
</defs>
</svg>
