<?xml version="1.0" standalone="no"?> <!DOCTYPE svg PUBLIC "-//W3C//DTD SVG 1.0//EN" "http://www.w3.org/TR/2001/REC-SVG-20010904/DTD/svg10.dtd" > <svg xmlns="http://www.w3.org/2000/svg" width="100%" height="100%">
<defs >
<font id="myriadproregular" horiz-adv-x="990" ><font-face
    font-family="Myriad Pro"
    units-per-em="2048"
    panose-1="2 11 5 3 3 4 3 2 2 4"
    ascent="1536"
    descent="-512"
    alphabetic="0" />
<missing-glyph horiz-adv-x="1024" d="M0 0V1434H1024V0H0ZM512 809L860 1331H164L512 809ZM573 717L922 195V1239L573 717ZM164 102H860L512 625L164 102ZM102 1239V195L451 717L102 1239Z" />
<glyph unicode=" " glyph-name="space" horiz-adv-x="434" />
<glyph unicode="!" glyph-name="exclam" horiz-adv-x="471" d="M305 395H166L137 1380H334L305 395ZM233 -23Q182 -23 149 13T115 104Q115 160 149 195T238 231Q291 231 323 196T356 104Q356 49 323 13T233 -23Z" />
<glyph unicode="&quot;" glyph-name="quotedbl" horiz-adv-x="690" d="M104 1417H283L248 926H137L104 1417ZM410 1417H588L553 926H444L410 1417Z" />
<glyph unicode="#" glyph-name="numbersign" horiz-adv-x="1017" d="M385 522H598L637 819H424L385 522ZM315 0H193L246 401H76V522H264L303 819H125V940H319L373 1331H494L440 940H655L707 1331H827L776 940H944V819H758L721 522H897V401H702L649 0H526L580 401H367L315
0Z" />
<glyph unicode="$" glyph-name="dollar" horiz-adv-x="1050" d="M575 -174H446V31Q359 32 275 57T135 121L184 258Q319 170 477 170Q586 170 653 226T721 371Q721 452 664 509T489 614Q321 680 237 762T152 971Q152 1099 235 1188T459 1300V1505H588V1307Q737
1302 854 1235L803 1100Q676 1171 545 1171Q436 1171 382 1118T328 993Q328 918 384 869T582 760Q745 693 822 607T899 387Q899 259 814 161T575 39V-174Z" />
<glyph unicode="%" glyph-name="percent" horiz-adv-x="1622" d="M245 1354T385 1354T607 1250T690 958Q690 757 600 648T373 539Q240 539 151 643T61 938Q61 1131 153 1242ZM375 1245Q294 1245 249 1160T203 946Q200 815 247 731T377 647Q463 647 506 729T549
948Q549 1081 507 1163T375 1245ZM473 -25H358L1143 1356H1257L473 -25ZM1253 803Q1394 803 1476 698T1559 406Q1559 204 1469 95T1241 -14Q1177 -14 1122 11T1024 85T956 211T930 387Q930 581 1021 692T1253 803ZM1243 694Q1163 694 1117 609T1071 393Q1068 263
1115 179T1245 94Q1331 94 1374 176T1417 397Q1417 482 1401 546T1344 652T1243 694Z" />
<glyph unicode="&amp;" glyph-name="ampersand" horiz-adv-x="1239" d="M1233 0H1020L891 133Q719 -23 487 -23Q293 -23 178 90T63 365Q63 620 334 768V774Q219 918 219 1063Q219 1128 242 1188T307 1297T418 1375T569 1405Q701 1405 787 1325T874 1112Q874 1001
803 912T571 743V735L907 352Q1001 494 1040 756H1204Q1145 411 1006 246L1233 0ZM520 113Q604 113 677 147T803 238L414 674Q236 559 236 391Q236 271 315 192T520 113ZM555 1282Q474 1282 429 1224T383 1081Q383 1012 410 954T487 831Q564 875 610 911T687 997T717
1104Q717 1175 676 1228T555 1282Z" />
<glyph unicode="&apos;" glyph-name="quotesingle" horiz-adv-x="385" d="M104 1417H283L248 926H137L104 1417Z" />
<glyph unicode="(" glyph-name="parenleft" horiz-adv-x="581" d="M399 1421H539Q283 1076 283 582Q283 116 539 -248H399Q131 105 131 584Q133 1067 399 1421Z" />
<glyph unicode=")" glyph-name="parenright" horiz-adv-x="581" d="M180 -248H41Q297 115 297 588T41 1421H180Q449 1071 449 588Q445 106 180 -248Z" />
<glyph unicode="*" glyph-name="asterisk" horiz-adv-x="849" d="M551 1405L674 1333L479 1077V1073L788 1114V975L479 1014V1008L676 762L547 688L422 975H418L287 686L170 760L365 1010V1016L61 975V1114L362 1075V1079L170 1331L295 1403L422 1116H426L551 1405Z" />
<glyph unicode="+" glyph-name="plus" horiz-adv-x="1220" d="M545 1090H676V608H1139V485H676V0H545V485H82V608H545V1090Z" />
<glyph unicode="," glyph-name="comma" horiz-adv-x="423" d="M160 -240L33 -254Q67 -161 103 -18T156 238L356 258Q320 129 262 -19T160 -240Z" />
<glyph unicode="-" glyph-name="hyphen" horiz-adv-x="628" d="M61 618H567V487H61V618Z" />
<glyph unicode="." glyph-name="period" horiz-adv-x="423" d="M225 -23Q174 -23 140 14T106 106Q106 162 141 199T229 236Q283 236 316 200T350 106Q350 50 316 14T225 -23Z" />
<glyph unicode="/" glyph-name="slash" horiz-adv-x="702" d="M135 -80H-2L567 1405H709L135 -80Z" />
<glyph unicode="0" glyph-name="zero" horiz-adv-x="1050" d="M539 1354Q747 1354 863 1176T979 680Q979 342 858 160T516 -23Q317 -23 197 157T74 662Q74 990 202 1172T539 1354ZM526 1214Q406 1214 331 1069T256 659Q256 403 328 260T526 117Q660 117 728 263T797
672Q797 927 730 1070T526 1214Z" />
<glyph unicode="1" glyph-name="one" horiz-adv-x="1050" d="M483 0V1163H479L248 1038L213 1176L504 1331H657V0H483Z" />
<glyph unicode="2" glyph-name="two" horiz-adv-x="1050" d="M942 0H92V111L233 248Q374 382 456 467T606 639T701 798T729 944Q729 997 716 1042T673 1124T592 1183T467 1204Q320 1204 184 1092L127 1219Q199 1279 296 1316T502 1354Q605 1354 685 1321T813 1231T885
1108T909 967Q909 877 879 792T783 616T643 446T451 252L346 154V150H942V0Z" />
<glyph unicode="3" glyph-name="three" horiz-adv-x="1050" d="M86 68L135 205Q185 175 265 149T430 123Q512 123 573 147T668 210T716 292T731 381Q730 448 701 500T623 584T514 631T387 647H287V782H387Q457 782 522 804T636 880T684 1008Q684 1094 626 1151T451
1208Q377 1208 306 1182T184 1120L135 1251Q194 1294 289 1324T485 1354Q580 1354 655 1328T775 1256T843 1154T866 1036Q866 930 803 848T621 721V717Q748 693 832 603T918 377Q918 296 886 225T795 98T642 10T432 -23Q329 -23 236 4T86 68Z" />
<glyph unicode="4" glyph-name="four" horiz-adv-x="1050" d="M819 0H649V365H31V481L625 1331H819V504H1006V365H819V0ZM213 504H649V948Q649 1052 655 1157H649Q603 1069 539 961L213 508V504Z" />
<glyph unicode="5" glyph-name="five" horiz-adv-x="1050" d="M887 1331V1180H379L328 838Q373 844 436 844Q607 844 723 772Q807 726 860 638T913 432Q913 236 774 107T418 -23Q316 -23 229 1T86 59L131 197Q180 168 257 146T418 123Q549 123 640 202T731 412Q731
547 636 626T350 705Q270 705 164 692L250 1331H887Z" />
<glyph unicode="6" glyph-name="six" horiz-adv-x="1050" d="M852 1352V1204Q799 1207 717 1194Q613 1178 529 1133T390 1024T300 884T254 723H258Q310 792 393 835T582 879Q759 879 871 760T983 449Q983 324 931 218T776 44T539 -23Q326 -23 198 131T70 545Q70
735 130 888T295 1145Q465 1311 721 1341Q786 1352 852 1352ZM543 117Q658 117 729 205T801 436T727 659T526 741Q445 741 374 697T266 578Q248 540 248 500Q250 330 327 224T543 117Z" />
<glyph unicode="7" glyph-name="seven" horiz-adv-x="1050" d="M117 1331H956V1212L377 0H190L768 1178V1182H117V1331Z" />
<glyph unicode="8" glyph-name="eight" horiz-adv-x="1050" d="M340 694L338 700Q230 750 178 829T125 999Q125 1156 242 1255T539 1354Q633 1354 708 1327T831 1253T903 1149T928 1026Q928 933 875 851T707 715V709Q834 658 904 570T975 365Q975 192 846 85T522
-23Q320 -23 198 81T76 336Q76 459 145 550T340 694ZM526 109Q646 109 719 175T793 346Q793 460 719 528T500 637Q385 604 323 531T260 360Q255 256 328 183T526 109ZM528 1225Q421 1225 359 1164T297 1012Q294 834 551 766Q642 797 698 859T754 1008Q754 1097
698 1161T528 1225Z" />
<glyph unicode="9" glyph-name="nine" horiz-adv-x="1050" d="M197 -20V127Q238 123 342 133Q512 156 621 262Q761 389 797 614H791Q675 473 475 473Q300 473 192 590T84 881Q84 1007 140 1114T301 1288T539 1354Q742 1354 860 1202T979 791Q979 584 917 427T750
168Q593 16 362 -10Q266 -25 197 -20ZM522 1217Q409 1217 336 1125T262 891Q262 765 332 687T518 608Q606 608 674 646T780 748Q797 776 797 815Q797 995 728 1106T522 1217Z" />
<glyph unicode=":" glyph-name="colon" horiz-adv-x="423" d="M227 700Q176 700 143 736T109 827Q109 884 143 920T229 956Q284 956 317 921T350 827Q350 772 317 736T227 700ZM227 -23Q176 -23 143 13T109 104Q109 161 143 197T229 233Q284 233 317 198T350 104Q350
49 317 13T227 -23Z" />
<glyph unicode=";" glyph-name="semicolon" horiz-adv-x="423" d="M160 -238L35 -252Q69 -159 105 -16T158 240L356 260Q320 130 262 -17T160 -238ZM242 700Q190 700 157 736T123 827Q123 884 157 920T244 956Q298 956 331 920T365 827Q365 773 331 737T242 700Z" />
<glyph unicode="&lt;" glyph-name="less" horiz-adv-x="1220" d="M135 489V600L1085 1090V948L285 547V543L1085 141V0L135 489Z" />
<glyph unicode="=" glyph-name="equal" horiz-adv-x="1220" d="M1139 690H82V813H1139V690ZM1139 289H82V412H1139V289Z" />
<glyph unicode="&gt;" glyph-name="greater" horiz-adv-x="1220" d="M1085 604V487L135 0V141L942 543V547L135 948V1090L1085 604Z" />
<glyph unicode="?" glyph-name="question" horiz-adv-x="831" d="M451 393H289L285 446Q264 624 412 801Q486 888 520 952T555 1081Q555 1162 505 1209T360 1257Q305 1257 249 1240T154 1194L104 1323Q157 1360 237 1382T397 1405Q564 1405 651 1318T739 1104Q739
1038 714 974T655 863T563 748Q496 669 469 597T446 444L451 393ZM365 -23Q313 -23 280 13T246 104Q246 161 280 197T367 233Q421 233 454 197T487 104Q487 49 454 13T365 -23Z" />
<glyph unicode="@" glyph-name="at" horiz-adv-x="1509" d="M918 522L961 752Q919 768 858 768Q724 768 628 659T532 399Q532 329 567 287T668 244Q752 244 826 332T918 522ZM1040 -45L1073 -133Q920 -215 709 -215Q583 -215 470 -170T273 -44T138 160T88 426Q88
584 141 727T290 978T528 1150T836 1214Q1011 1214 1147 1138T1356 926T1430 621Q1430 399 1324 266T1067 133Q1000 133 955 178T913 313H907Q800 133 618 133Q526 133 462 203T397 391Q397 518 458 629T632 808T883 877Q1007 877 1102 834L1032 463Q987 238 1094
233Q1178 230 1246 334T1315 606Q1315 836 1184 978T819 1120Q694 1120 582 1072T387 936T254 720T205 438Q205 185 352 34T731 -117Q911 -117 1040 -45Z" />
<glyph unicode="A" glyph-name="A" horiz-adv-x="1253" d="M868 434H379L236 0H51L522 1380H735L1206 0H1016L868 434ZM416 573H834L696 971Q664 1067 625 1223H621Q569 1026 551 973L416 573Z" />
<glyph unicode="B" glyph-name="B" horiz-adv-x="1110" d="M156 4V1360Q289 1391 481 1391Q737 1391 858 1290Q975 1204 975 1047Q975 945 912 864T741 743V737Q793 725 841 699T932 631T1000 528T1026 393Q1026 224 907 117Q769 -12 432 -12Q274 -12 156 4ZM334
1241V795H496Q633 795 713 860T793 1028Q793 1143 714 1198T492 1253Q390 1253 334 1241ZM334 662V135Q383 127 483 127Q556 127 617 141T729 185T809 269T838 395Q838 528 738 595T481 662H334Z" />
<glyph unicode="C" glyph-name="C" horiz-adv-x="1187" d="M1083 186L1118 43Q1066 16 969 -3T754 -23Q607 -23 484 23T269 156T126 377T74 678Q74 839 127 974T274 1203T502 1350T795 1403Q1005 1403 1122 1341L1077 1196Q965 1253 801 1253Q554 1253 408 1103T262
684Q262 427 402 278T791 129Q964 129 1083 186Z" />
<glyph unicode="D" glyph-name="D" horiz-adv-x="1363" d="M156 4V1360Q342 1391 535 1391Q905 1391 1094 1219Q1290 1042 1290 723Q1290 384 1092 186Q891 -12 479 -12Q300 -12 156 4ZM334 1231V139Q394 131 514 131Q800 131 951 283T1102 717Q1104 967 962 1108T543
1249Q419 1249 334 1231Z" />
<glyph unicode="E" glyph-name="E" horiz-adv-x="1007" d="M868 795V647H334V150H932V0H154V1380H901V1231H334V795H868Z" />
<glyph unicode="F" glyph-name="F" horiz-adv-x="997" d="M154 0V1380H897V1231H334V772H854V625H334V0H154Z" />
<glyph unicode="G" glyph-name="G" horiz-adv-x="1323" d="M1208 725V61Q1008 -14 782 -14Q456 -14 266 168Q176 255 125 389T74 682Q74 836 126 967T273 1193T509 1341T821 1395Q931 1395 1023 1376T1167 1331L1122 1186Q999 1245 817 1245Q563 1245 413 1097T262
690Q262 430 406 282T795 133Q956 133 1032 170V582H754V725H1208Z" />
<glyph unicode="H" glyph-name="H" horiz-adv-x="1335" d="M154 1380H334V803H1001V1380H1182V0H1001V647H334V0H154V1380Z" />
<glyph unicode="I" glyph-name="I" horiz-adv-x="489" d="M154 1380H334V0H154V1380Z" />
<glyph unicode="J" glyph-name="J" horiz-adv-x="757" d="M436 471V1380H616V457Q616 -23 199 -23Q87 -23 8 10L33 156Q100 129 184 129Q247 129 291 145T369 198T419 303T436 471Z" />
<glyph unicode="K" glyph-name="K" horiz-adv-x="1110" d="M156 0V1380H334V715H340Q387 782 449 862L870 1380H1092L592 795L1130 0H920L467 678L334 526V0H156Z" />
<glyph unicode="L" glyph-name="L" horiz-adv-x="966" d="M154 0V1380H334V150H924V0H154Z" />
<glyph unicode="M" glyph-name="M" horiz-adv-x="1646" d="M1352 0L1319 606Q1296 1050 1296 1202H1292Q1198 896 1118 678L874 8H739L514 666Q406 991 356 1202H352Q346 938 326 592L289 0H119L215 1380H442L678 713Q760 469 817 248H821Q873 444 969 713L1214
1380H1442L1528 0H1352Z" />
<glyph unicode="N" glyph-name="N" horiz-adv-x="1347" d="M324 0H156V1380H352L793 682Q956 418 1038 233L1044 236Q1024 466 1024 803V1380H1192V0H1012L573 700Q403 973 317 1161L311 1159Q324 953 324 590V0Z" />
<glyph unicode="O" glyph-name="O" horiz-adv-x="1411" d="M713 1405Q900 1405 1041 1316T1259 1068T1335 705Q1335 532 1285 392T1147 163T943 25T694 -23Q419 -23 247 172T74 680Q74 842 122 978T255 1207T458 1353T713 1405ZM707 1260Q599 1260 513 1213T373
1085T291 902T262 684Q262 572 292 471T377 293T517 169T705 123T892 168T1032 292T1117 474T1147 696Q1147 780 1130 861T1077 1014T991 1141T867 1228T707 1260Z" />
<glyph unicode="P" glyph-name="P" horiz-adv-x="1089" d="M156 0V1364Q322 1391 498 1391Q758 1391 885 1276Q1006 1167 1006 987Q1006 802 899 692Q828 618 719 580T477 541Q383 541 334 553V0H156ZM334 1235V698Q389 684 481 684Q643 684 735 761T827 977Q827
1111 740 1180T502 1249Q388 1249 334 1235Z" />
<glyph unicode="Q" glyph-name="Q" horiz-adv-x="1411" d="M1346 -53L1294 -203Q1026 -132 766 -43Q704 -23 682 -23Q557 -18 448 30T255 164T123 382T74 678T122 977T254 1207T457 1353T715 1405Q900 1405 1042 1316T1259 1068T1335 707Q1335 448 1228 278T942
43V35Q1166 -22 1346 -53ZM705 123Q808 123 892 168T1032 292T1117 474T1147 696Q1147 803 1120 902T1040 1082T902 1211T711 1260Q602 1260 515 1212T373 1083T291 899T262 682Q262 532 312 407T465 202T705 123Z" />
<glyph unicode="R" glyph-name="R" horiz-adv-x="1101" d="M156 0V1362Q319 1391 498 1391Q772 1391 897 1278Q949 1232 977 1163T1006 1014Q1006 885 934 794T748 664V657Q896 606 948 379Q1023 59 1055 0H870Q838 59 780 330Q749 472 687 532T502 598H334V0H156ZM334
1237V733H516Q658 733 742 805T827 995Q827 1124 742 1187T510 1251Q388 1251 334 1237Z" />
<glyph unicode="S" glyph-name="S" horiz-adv-x="1009" d="M86 68L133 217Q274 127 451 127Q585 127 662 191T739 362Q739 457 679 519T479 635Q302 700 209 795T115 1028Q115 1191 238 1297T561 1403Q749 1403 864 1335L815 1190Q711 1255 555 1255Q425 1255
360 1193T295 1049Q295 956 357 898T569 782Q750 712 835 619T920 377Q920 296 890 225T802 98T650 10T438 -23Q341 -23 242 3T86 68Z" />
<glyph unicode="T" glyph-name="T" horiz-adv-x="1017" d="M418 0V1229H-2V1380H1020V1229H598V0H418Z" />
<glyph unicode="U" glyph-name="U" horiz-adv-x="1325" d="M154 1380H334V561Q334 341 421 232T655 123Q813 123 902 232T991 561V1380H1171V573Q1171 418 1132 302T1022 116T857 12T649 -23Q540 -23 452 9T296 110T191 294T154 567V1380Z" />
<glyph unicode="V" glyph-name="V" horiz-adv-x="1142" d="M655 0H459L6 1380H201L416 700Q522 353 563 184H567Q617 390 725 698L958 1380H1149L655 0Z" />
<glyph unicode="W" glyph-name="W" horiz-adv-x="1732" d="M567 0H381L31 1380H219L383 682Q449 407 485 205H489Q513 345 602 684L786 1380H973L1141 680Q1214 372 1237 207H1241Q1268 349 1352 684L1534 1380H1716L1325 0H1139L965 719Q898 993 874 1169H870Q841
987 764 719L567 0Z" />
<glyph unicode="X" glyph-name="X" horiz-adv-x="1169" d="M1118 0H911L733 305Q634 467 575 578H571Q517 467 422 303L256 0H51L473 698L68 1380H274L457 1057Q542 907 584 823H590Q639 925 715 1057L901 1380H1108L688 709L1118 0Z" />
<glyph unicode="Y" glyph-name="Y" horiz-adv-x="1107" d="M643 0H463V586L25 1380H229L424 999Q537 768 561 715H565Q593 784 705 999L903 1380H1104L643 588V0Z" />
<glyph unicode="Z" glyph-name="Z" horiz-adv-x="1132" d="M61 0V104L825 1225V1231H127V1380H1059V1272L297 156V150H1069V0H61Z" />
<glyph unicode="[" glyph-name="bracketleft" horiz-adv-x="581" d="M541 -229H166V1405H541V1292H307V-117H541V-229Z" />
<glyph unicode="\" glyph-name="backslash" horiz-adv-x="698" d="M700 -80H561L4 1405H143L700 -80Z" />
<glyph unicode="]" glyph-name="bracketright" horiz-adv-x="581" d="M41 1405H416V-229H41V-117H274V1292H41V1405Z" />
<glyph unicode="^" glyph-name="asciicircum" horiz-adv-x="1220" d="M1098 387H954L612 1182H608L266 387H125L547 1331H676L1098 387Z" />
<glyph unicode="_" glyph-name="underscore" horiz-adv-x="1024" d="M0 -154H1024V-256H0V-154Z" />
<glyph unicode="`" glyph-name="grave" horiz-adv-x="614" d="M45 1419H242L422 1126H295L45 1419Z" />
<glyph unicode="a" glyph-name="a" horiz-adv-x="987" d="M846 608V238Q846 95 860 0H698L684 125H678Q633 61 554 19T375 -23Q279 -23 209 19T105 124T72 262Q72 442 226 537T668 631V651Q668 680 665 706T647 765T610 823T543 863T442 879Q292 879 182 805L141
926Q204 965 290 988T469 1012Q557 1012 624 989T733 927T800 835T836 726T846 608ZM672 334V506Q252 515 252 283Q252 198 299 155T420 111Q512 111 576 159T664 276Q672 304 672 334Z" />
<glyph unicode="b" glyph-name="b" horiz-adv-x="1165" d="M150 256V1454H328V831H332Q381 917 467 964T670 1012Q856 1012 973 872T1090 508Q1090 380 1052 277T949 109T807 11T643 -23Q418 -23 309 162H305L295 0H141Q150 153 150 256ZM328 573V397Q328 359
336 332Q361 238 434 180T606 121Q747 121 827 224T907 502Q907 659 829 764T610 870Q518 870 442 810T338 649Q328 612 328 573Z" />
<glyph unicode="c" glyph-name="c" horiz-adv-x="917" d="M825 170L856 35Q737 -23 571 -23Q347 -23 213 116T78 483Q78 715 224 863T610 1012Q685 1012 752 996T860 958L819 821Q731 868 610 868Q446 868 353 761T260 494Q260 325 357 224T604 123Q721 123 825 170Z" />
<glyph unicode="d" glyph-name="d" horiz-adv-x="1155" d="M825 1454H1004V256Q1004 136 1012 0H852L844 172H838Q796 85 709 31T504 -23Q321 -23 200 117T78 481Q77 721 206 866T522 1012Q630 1012 707 970T821 862H825V1454ZM825 416V588Q825 633 817 664Q797
751 726 810T557 870Q420 870 340 763T260 489Q260 331 337 227T553 123Q645 123 719 181T817 338Q825 370 825 416Z" />
<glyph unicode="e" glyph-name="e" horiz-adv-x="1026" d="M946 463H250Q253 290 348 205T590 119Q750 119 864 170L897 41Q758 -23 565 -23Q339 -23 209 114T78 479Q78 629 133 749T295 941T543 1012Q636 1012 710 981T828 901T901 789T941 666T952 547Q952 493
946 463ZM252 592H778Q779 629 773 666T749 743T705 813T632 863T528 883Q462 883 410 856T326 784T276 691T252 592Z" />
<glyph unicode="f" glyph-name="f" horiz-adv-x="598" d="M346 0H168V854H31V991H168V1038Q168 1273 283 1384Q377 1477 524 1477Q606 1477 678 1448L653 1309Q605 1331 539 1331Q346 1331 346 1044V991H586V854H346V0Z" />
<glyph unicode="g" glyph-name="g" horiz-adv-x="1144" d="M997 721V145Q997 -24 963 -133T856 -309Q723 -428 494 -428Q402 -428 312 -407T164 -346L209 -207Q330 -287 500 -287Q647 -287 733 -203T819 61V170H815Q773 96 691 50T500 4Q317 4 198 142T78 487Q78
609 115 710T216 876T359 976T526 1012Q644 1012 720 963T836 842H840L846 991H1006Q997 902 997 721ZM817 422V600Q817 651 807 680Q781 765 716 818T555 872Q424 872 342 770T260 498Q260 344 337 243T553 141Q639 141 707 191T803 326Q817 368 817 422Z" />
<glyph unicode="h" glyph-name="h" horiz-adv-x="1136" d="M150 0V1454H330V834H334Q379 916 463 963Q550 1012 647 1012Q691 1012 734 1001T826 961T910 886T969 764T993 590V0H813V569Q813 700 759 781T584 862Q500 862 435 811T342 684Q330 652 330 598V0H150Z" />
<glyph unicode="i" glyph-name="i" horiz-adv-x="479" d="M330 0H150V991H330V0ZM240 1382Q288 1382 319 1350T350 1270T319 1191T236 1159Q187 1159 157 1191T127 1270T158 1349T240 1382Z" />
<glyph unicode="j" glyph-name="j" horiz-adv-x="497" d="M-74 -432L-94 -291Q42 -281 102 -213Q141 -170 156 -93T172 158V991H352V88Q352 -60 325 -156T233 -319Q178 -375 93 -403T-74 -432ZM262 1382Q312 1382 342 1350T373 1270T342 1191T258 1159Q210 1159
180 1191T150 1270Q150 1317 181 1349T262 1382Z" />
<glyph unicode="k" glyph-name="k" horiz-adv-x="960" d="M328 1454V537H332Q371 592 418 649L711 991H926L545 584L981 0H760L420 475L328 373V0H150V1454H328Z" />
<glyph unicode="l" glyph-name="l" horiz-adv-x="483" d="M150 0V1454H330V0H150Z" />
<glyph unicode="m" glyph-name="m" horiz-adv-x="1708" d="M150 0V723Q150 806 141 991H299L307 829H313Q421 1012 627 1012Q725 1012 798 958T905 813H909Q949 887 1022 942Q1114 1012 1239 1012Q1282 1012 1324 1001T1412 960T1490 883T1545 759T1567 582V0H1391V559Q1391
706 1337 785T1176 864Q1101 864 1044 818T961 702Q946 659 946 612V0H770V594Q770 716 717 790T563 864Q485 864 425 811T340 684Q326 649 326 596V0H150Z" />
<glyph unicode="n" glyph-name="n" horiz-adv-x="1136" d="M150 0V723Q150 868 141 991H301L311 827H315Q357 905 442 958T643 1012Q688 1012 732 1001T825 961T909 886T969 764T993 590V0H813V571Q813 702 759 783T584 864Q499 864 434 811T342 680Q330 646 330
596V0H150Z" />
<glyph unicode="o" glyph-name="o" horiz-adv-x="1124" d="M569 1012Q782 1012 914 871T1047 504Q1047 398 1019 309T942 160T830 57T696 -4T553 -23Q349 -23 214 117T78 487Q78 608 116 708T221 874T377 976T569 1012ZM641 877T565 877T429 844T334 755T280 633T262
494Q262 329 346 221T561 113Q691 113 776 222T862 498Q862 564 845 628T794 750T701 842Z" />
<glyph unicode="p" glyph-name="p" horiz-adv-x="1165" d="M150 -406V668Q150 780 141 991H301L311 821H315Q429 1012 668 1012Q851 1012 970 872T1090 510Q1090 381 1053 278T951 110T807 11T637 -23Q538 -23 457 18T332 133H328V-406H150ZM328 575V403Q328 359
336 330Q361 236 435 178T606 119Q747 119 827 223T907 502Q907 602 874 684T773 817T612 868Q518 868 441 807T340 647Q328 603 328 575Z" />
<glyph unicode="q" glyph-name="q" horiz-adv-x="1153" d="M825 -406V152H821Q777 74 694 26T498 -23Q320 -23 199 116T78 477Q78 585 104 675T175 827T278 930T399 992T526 1012Q636 1012 714 965T831 842H836L842 991H1012Q1004 827 1004 719V-406H825ZM825
403V590Q825 633 817 664Q794 751 725 809T559 868Q421 868 341 763T260 489Q260 331 335 226T553 121Q642 121 711 172T811 315Q825 362 825 403Z" />
<glyph unicode="r" glyph-name="r" horiz-adv-x="669" d="M150 0V682Q150 853 141 991H299L307 795H313Q347 894 423 953T590 1012Q607 1012 639 1008V838Q621 842 578 842Q484 842 419 779T336 612Q330 576 330 528V0H150Z" />
<glyph unicode="s" glyph-name="s" horiz-adv-x="811" d="M82 47L125 182Q244 113 365 113Q458 113 506 153T555 260Q555 323 514 363T373 440Q109 537 109 721Q109 845 203 928T451 1012Q598 1012 692 950L649 819Q555 879 446 879Q369 879 326 840T283 743T324
650T469 573Q601 524 665 454T729 276Q729 142 630 60T360 -23Q202 -23 82 47Z" />
<glyph unicode="t" glyph-name="t" horiz-adv-x="677" d="M190 1176L367 1229V991H625V854H367V319Q367 223 398 175T502 127Q567 127 606 139L614 2Q543 -23 455 -23Q330 -23 260 53Q190 133 190 313V854H37V991H190V1176Z" />
<glyph unicode="u" glyph-name="u" horiz-adv-x="1128" d="M979 991V272Q979 104 987 0H827L817 162H813Q772 88 689 33T485 -23Q435 -23 390 -12T298 31T219 109T164 234T143 412V991H324V444Q324 127 545 127Q630 127 692 176T782 293Q799 330 799 385V991H979Z" />
<glyph unicode="v" glyph-name="v" horiz-adv-x="985" d="M27 991H219L414 436Q469 279 494 180H500Q523 267 584 436L776 991H965L575 0H403L27 991Z" />
<glyph unicode="w" glyph-name="w" horiz-adv-x="1507" d="M37 991H221L354 487Q412 249 426 172H432Q459 288 520 485L682 991H834L987 496Q1044 312 1075 172H1081Q1103 304 1157 494L1298 991H1477L1157 0H993L842 473Q782 665 754 799H750Q721 660 659 471L500
0H336L37 991Z" />
<glyph unicode="x" glyph-name="x" horiz-adv-x="948" d="M33 991H233L375 778Q421 714 477 618H481Q518 683 582 780L719 991H915L578 512L924 0H721L573 223Q531 287 467 395H463Q421 320 358 223L215 0H16L369 506L33 991Z" />
<glyph unicode="y" glyph-name="y" horiz-adv-x="964" d="M18 991H215L430 406Q461 323 496 203H500Q506 222 518 263T541 341T563 410L760 991H950L680 285Q580 22 505 -117T340 -336Q230 -429 119 -451L74 -301Q158 -275 231 -213Q322 -142 383 -12Q397 19 397
31Q397 46 383 78L18 991Z" />
<glyph unicode="z" glyph-name="z" horiz-adv-x="876" d="M37 0V104L483 688L614 844V848H78V991H831V879L389 303Q300 190 262 147V143H840V0H37Z" />
<glyph unicode="{" glyph-name="braceleft" horiz-adv-x="581" d="M57 539V643Q108 643 143 656T194 693T216 740T223 795Q223 853 207 965Q190 1090 190 1137Q190 1272 271 1338T489 1405H530V1292H496Q408 1291 370 1247T332 1116Q332 1085 346 971Q362 869
362 815Q366 634 213 594V590Q362 550 362 367Q362 311 346 209Q332 95 332 61Q332 -114 496 -117H530V-229H487Q351 -229 271 -163T190 51Q190 115 209 219Q223 352 223 385Q223 539 57 539Z" />
<glyph unicode="|" glyph-name="bar" horiz-adv-x="489" d="M176 1536H313V-512H176V1536Z" />
<glyph unicode="}" glyph-name="braceright" horiz-adv-x="581" d="M524 643V539Q473 539 439 525T388 486T365 438T358 385Q358 340 375 219Q391 109 391 51Q391 -96 311 -162T94 -229H51V-117H86Q250 -114 250 61Q250 95 236 209Q219 305 219 367Q216 549 369
590V594Q219 633 219 815Q219 875 236 971Q250 1085 250 1116Q250 1203 212 1247T86 1292H51V1405H92Q229 1405 310 1339T391 1137Q391 1083 375 965Q358 846 358 795Q358 764 364 740T386 693T437 656T524 643Z" />
<glyph unicode="~" glyph-name="asciitilde" horiz-adv-x="1220" d="M223 430H100Q96 578 164 658T344 739Q405 739 464 720T635 647Q701 615 732 601T808 574T889 561Q996 561 999 733H1120Q1127 574 1060 499T887 424Q827 424 763 444T590 514Q579 520 551 533T512
552T477 568T441 583T410 594T375 602T344 604Q226 604 223 430Z" />
</font>
</defs>
</svg>
